Strona główna Ostatnie testy Nasze Zestawy Kanały 4K Próbki HD Forum
Rejestracja Regulamin Kalendarz Szukaj Dzisiejsze posty Zaznacz wszystkie fora jako przeczytane


PodstawyNA TYM FORUM ZABLOKOWANA JEST MOŻLIWOŚĆ TWORZENIA NOWYCH TEMATÓW, wątki z tego działu będą przeniesione do odpowienich podkategorii w innych działach

Wróć HDforum > Video > Podstawy > Kapitalna Lista Oficjalnych Klipów Hd !!! Extra
Odpowiedz

Full HD

Avatar bramowicz1

Meldunek: Feb 2015
Postów: 424
Cytuj  
#176
21-08-2018, 02:18
Domyślnie

Ładna kolekcja krótkich Demo Movie w najlepszej jakości:

https://drive.google.com/drive/folde...DdnSTJ2YVR4REU
Odpowiedź z Cytatem
bramowicz1 jest offline
reklama


Meldunek: Feb 2005
Skąd: hdtv.com.pl

 
Full HD

Avatar bramowicz1

Meldunek: Feb 2015
Postów: 424
Cytuj  
#177
16-12-2018, 20:20
Domyślnie

Full HD, video 108 Mbps, audio PCM 7.1, 96.0 KHz, 18.400 Kbps



Kod:
General #1
ID : 1 (0x1)
Complete name : D:\软件\emule\Incoming\Orianthi-Now or Never.m2ts
Format : BDAV
Format/Info : Blu-ray Video
File size : 3.55 GiB
Duration : 4mn 42s
Overall bit rate mode : Variable
Overall bit rate : 108 Mbps
Maximum Overall bit rate : 35.5 Mbps
Video #4113
ID : 4113 (0x1011)
Menu ID : 1 (0x1)
Format : MPEG Video
Format version : Version 2
Format profile : [email protected]
Format settings, BVOP : Yes
Format settings, Matrix : Custom
Format settings, GOP : M=3, N=7
Codec ID : 2
Duration : 4mn 42s
Bit rate : 80.0 Mbps
Width : 1 920 pixels
Height : 1 080 pixels
Display aspect ratio : 16:9
Frame rate : 29.970 fps
Standard : Component
Color space : YUV
Chroma subsampling : 4:2:0
Bit depth : 8 bits
Scan type : Interlaced
Scan order : Top Field First
Compression mode : Lossy
Bits/(Pixel*Frame) : 1.287
Time code of first frame : 00:00:00:00
Time code source : Group of pictures header
Stream size : 2.65 GiB (75%)
Writing library : TMPGEnc Video Mastering Works 5 Version. 5.1.0.46
Color primaries : BT.709
Transfer characteristics : BT.709
Matrix coefficients : BT.709
Audio #4352
ID : 4352 (0x1100)
Menu ID : 1 (0x1)
Format : PCM
Format settings, Endianness : Big
Format settings, Sign : Signed
Muxing mode : Blu-ray
Codec ID : 128
Duration : 4mn 42s
Bit rate mode : Constant
Bit rate : 4 608 Kbps
Channel(s) : 2 channels
Channel positions : Front: L R
Sampling rate : 96.0 KHz
Bit depth : 24 bits
Stream size : 155 MiB (4%)
Audio #4353
ID : 4353 (0x1101)
Menu ID : 1 (0x1)
Format : PCM
Format settings, Endianness : Big
Format settings, Sign : Signed
Muxing mode : Blu-ray
Codec ID : 128
Duration : 4mn 42s
Bit rate mode : Constant
Bit rate : 18.4 Mbps
Channel(s) : 8 channels
Channel positions : Front: L C R, Side: L R, Back: L R, LFE
Sampling rate : 96.0 KHz
Bit depth : 24 bits
Stream size : 621 MiB (17%)
https://mega.nz/#F!t4dxDAZZ!iA04Jp9pDKFmZAb39wC24g
Odpowiedź z Cytatem
bramowicz1 jest offline
Member

Avatar Grzegorz68

Meldunek: Dec 2018
Postów: 74
Cytuj  
#178
12-01-2019, 16:56
Domyślnie

Super, dzięki wielkie
Odpowiedź z Cytatem
Grzegorz68 jest offline
reklama


Meldunek: Feb 2005
Skąd: hdtv.com.pl

 

reklama


Meldunek: Feb 2005
Skąd: hdtv.com.pl

 

Odpowiedz

Narzędzia wątku Przeszukaj ten temat
Przeszukaj ten temat:

Zaawansowane wyszukiwanie

Zasady postowania
Nie możesz zakładać nowych tematów
Nie możesz pisać wiadomości
Nie możesz dodawać załączników
Nie możesz edytować swoich postów

BB Code jest Włączony
EmotikonyWłączony
[IMG] kod jest Włączony
HTML kod jest Wyłączony
Trackbacks are Włączony
Pingbacks are Włączony
Refbacks are Włączony



Czasy w strefie GMT +2. Teraz jest 21:28. Powered by vBulletin® Version 3.8.8
Copyright ©2000 - 2019, Jelsoft Enterprises Ltd.
Content Relevant URLs by vBSEO
Tłumaczenie: vBHELP.pl - Polski Support vBulletin VBulletin Skin by ForumMonkeys.




Nowy na forum?

  • Regulamin
  • Zapomniałeś hasła?
  • Zarejestruj się.
  • Jak szukać treści.
  • Polityka prywatności
  • Reklama

  • Ciekawe artykuły

  • Czy Hz ma znaczenie?
  • Nie strać danych.
  • Robot co skosi trawnik
  • Zestawy użytkowników
  • Graj w 4K!

  • Testy otwarte

  • Panasonic ET5E test
  • Philips PFL 4007 test
  • Panasonic VT50 test
  • Sharp 70le835 test
  • Samsung ES7000 test
  • Panasonic DT50 test

  • Nasi Partnerzy

  • Cyfrowe atelier

  • Kontakt - hdtv.com.pl - Archiwum - Dyrektywa prywatności - Na górę